Quick Browse
Movies
TV shows
Music
Games
Applications
Anime
Other

Verified torrent Elvis.E.Nixon.2016.iTALiAN.BDRiP.XviD-HDi.avi


    Seeders : 0      Leechers : 0

Trackers List

Tracker NameLast CheckStatusSeedersLeechers




Torrent File Content (1 file)


     Elvis.E.Nixon.2016.iTALiAN.BDRiP.XviD-HDi.avi -
1.6 GB



Description




Elvis & Nixon (2016).avi BDRip AC3 - ITA


http://s30.postimg.org/e3avmy0qp/7_Qjy_EPK.jpg



Scheda:

DATA USCITA: 22 settembre 2016
GENERE: Commedia
ANNO: 2016
REGIA: Liza Johnson
ATTORI: Michael Shannon, Kevin Spacey, Alex Pettyfer, Johnny Knoxville, Colin Hanks, Evan Peters, Sky Ferreira, Tracy Letts, Tate Donovan
SCENEGGIATURA: Joey Sagal, Cary Elwes, H a Sagal
FOTOGRAFIA: Terry Stacey
MONTAGGIO: Michael Taylor
PRODUZIONE: Amazon Studios
DISTRIBUZIONE: Videa
PAESE: USA
DURATA: 86 Min

Trama:

Il film racconta dello storico incontro avvenuto tra due personalità a dir poco differenti quali Elvis Presley e Richard Nixon. In una mattina di dicembre del 1970, il Re del Rock 'n' Roll Elvis Presley si reca alla Casa Bianca chiedendo di incontrare l'uomo più potente del mondo, il presidente Richard Nixon, in seguito ad una lettera in cui gli chiedeva di "diventare un agente segreto del governo".

Elvis.&.Nixon.2016.iTALiAN.BDRiP.XviD-HDi.avi



http://s30.postimg.org/u0e8xeiip/Elvis_Nixon_2016_i_TALi_AN_BDRi_P_Xvi_D_HDi_01_04.jpg

http://s30.postimg.org/dbct1hlxd/Elvis_Nixon_2016_i_TALi_AN_BDRi_P_Xvi_D_HDi_00_43.jpg

http://s30.postimg.org/rta09hd8h/Elvis_Nixon_2016_i_TALi_AN_BDRi_P_Xvi_D_HDi_00_21.jpg



General
Complete name : Elvis.&.Nixon.2016.iTALiAN.BDRiP.XviD-HDi.avi
Format : AVI
Format/Info : Audio Video Interleave
File size : 1.60 GiB
Duration : 1h 26mn
Overall bit rate : 2 656 Kbps
Writing application : VirtualDubMod 1.5.10.2 (build 2540/release)
Writing library : VirtualDubMod build 2540/release

Video
ID : 0
Format : MPEG-4 Visual
Format profile : Advanced [email protected]
Format settings, BVOP : 1
Format settings, QPel : No
Format settings, GMC : No warppoints
Format settings, Matrix : Default (H.263)
Codec ID : XVID
Codec ID/Hint : XviD
Duration : 1h 26mn
Bit rate : 2 006 Kbps
Width : 720 pixels
Height : 304 pixels
Display aspect ratio : 2.35:1
Frame rate : 24.000 fps
Original frame rate : 23.976 fps
Color space : YUV
Chroma subsampling : 4:2:0
Bit depth : 8 bits
Scan type : Progressive
Compression mode : Lossy
Bits/(Pixel*Frame) : 0.382
Stream size : 1.21 GiB (76%)
Writing library : XviD 67

Audio
ID : 1
Format : AC-3
Format/Info : Audio Coding 3
Mode extension : CM (complete main)
Codec ID : 2000
Duration : 1h 26mn
Bit rate mode : Constant
Bit rate : 640 Kbps
Channel(s) : 6 channels
Channel positions : Front: L C R, Side: L R, LFE
Sampling rate : 48.0 KHz
Bit depth : 16 bits
Compression mode : Lossy
Stream size : 394 MiB (24%)
Alignment : Split accross interleaves
Interleave, duration : 42 ms (1.00 video frame)
Interleave, preload duration : 500 ms


Related torrents

Torrent NameAddedSizeSeedLeechHealth
18 days ago - in Movies1.25 GB00
22 days ago - in Movies1.94 GB1719
22 days ago - in Movies1.65 GB5156
22 days ago - in Movies2.37 GB4345
29 days ago - in Movies2.06 GB00
29 days ago - in Movies1.72 GB00

Comments (0 Comments)




Latest Searches